Proxy just failed (Not sure if its a bug or my fault)

proxyfail

ffmpeg version n4.2.4-7-gc9f3835b2b Copyright © 2000-2020 the FFmpeg developers
built with gcc 10.2.0 (Rev4, Built by MSYS2 project)
configuration: --prefix=/d/a/shotcut/shotcut/build/Shotcut --disable-static --disable-doc --enable-gpl --enable-version3 --enable-shared --enable-runtime-cpudetect --enable-libtheora --enable-libvorbis --enable-libmp3lame --enable-libx264 --enable-libx265 --enable-libvpx --enable-libopus --enable-libmfx
libavutil 56. 31.100 / 56. 31.100
libavcodec 58. 54.100 / 58. 54.100
libavformat 58. 29.100 / 58. 29.100
libavdevice 58. 8.100 / 58. 8.100
libavfilter 7. 57.100 / 7. 57.100
libswscale 5. 5.100 / 5. 5.100
libswresample 3. 5.100 / 3. 5.100
libpostproc 55. 5.100 / 55. 5.100
[h264 @ 0000020d3da04ec0] Reinit context to 1280x720, pix_fmt: yuvj420p
Input #0, mov,mp4,m4a,3gp,3g2,mj2, from ‘J:/Users/Little J/Downloads/807619085-102168255-be12b05e-e0a6-4e4d-974d-c1450d31a5a5.mp4’:
Metadata:
major_brand : isom
minor_version : 512
compatible_brands: isomiso2avc1mp41
encoder : Lavf55.43.100
Duration: 04:49:13.02, start: 0.000000, bitrate: 5677 kb/s
Stream #0:0(und): Video: h264 (High), 1 reference frame (avc1 / 0x31637661), yuvj420p(pc, bt709, left), 1280x720, 5498 kb/s, 59.94 fps, 60 tbr, 90k tbn, 120 tbc (default)
Metadata:
handler_name : VideoHandler
Stream #0:1(und): Audio: aac (LC) (mp4a / 0x6134706D), 44100 Hz, stereo, fltp, 161 kb/s (default)
Metadata:
handler_name : SoundHandler
Stream mapping:
Stream #0:0 -> #0:0 (h264 (native) -> h264 (libx264))
Stream #0:1 -> #0:1 (aac (native) -> ac3 (native))
Press [q] to stop, [?] for help
[h264 @ 0000020d3c23a6c0] Reinit context to 1280x720, pix_fmt: yuvj420p
[graph_1_in_0_1 @ 0000020d3e44d780] tb:1/44100 samplefmt:fltp samplerate:44100 chlayout:0x3
[Parsed_scale_1 @ 0000020d3e2fa780] w:-2 h:540 flags:‘bicubic’ interl:0
[graph 0 input from stream 0:0 @ 0000020d4081ee80] w:1280 h:720 pixfmt:yuvj420p tb:1/90000 fr:60/1 sar:0/1 sws_param:flags=2
[swscaler @ 0000020d46f9a140] deprecated pixel format used, make sure you did set range correctly
[Parsed_scale_1 @ 0000020d3e2fa780] w:1280 h:720 fmt:yuvj420p sar:0/1 -> w:960 h:540 fmt:yuv420p sar:0/1 flags:0x4
[libx264 @ 0000020d3d9fb7c0] using cpu capabilities: MMX2 SSE2Fast SSSE3 SSE4.2 AVX FMA3 BMI2 AVX2
[libx264 @ 0000020d3d9fb7c0] profile High, level 3.2, 4:2:0, 8-bit
[libx264 @ 0000020d3d9fb7c0] 264 - core 159 r2991M 1771b55 - H.264/MPEG-4 AVC codec - Copyleft 2003-2019 - http://www.videolan.org/x264.html - options: cabac=1 ref=1 deblock=1:0:0 analyse=0x3:0x113 me=hex subme=2 psy=1 psy_rd=1.00:0.00 mixed_ref=0 me_range=16 chroma_me=1 trellis=0 8x8dct=1 cqm=0 deadzone=21,11 fast_pskip=1 chroma_qp_offset=0 threads=17 lookahead_threads=4 sliced_threads=0 nr=0 decimate=1 interlaced=0 bluray_compat=0 constrained_intra=0 bframes=0 weightp=0 keyint=1 keyint_min=1 scenecut=40 intra_refresh=0 rc=crf mbtree=0 crf=23.0 qcomp=0.60 qpmin=0 qpmax=69 qpstep=4 ip_ratio=1.40 aq=1:1.00
Output #0, mp4, to ‘C:/Users/Jonathan/Videos/MC100P3/proxies/bd9f2973015c06cebd092b094a841f0c.pending.mp4’:
Metadata:
major_brand : isom
minor_version : 512
compatible_brands: isomiso2avc1mp41
encoder : Lavf58.29.100
Stream #0:0(und): Video: h264 (libx264), 1 reference frame (avc1 / 0x31637661), yuv420p(pc, bt709, left), 960x540, q=-1–1, 60 fps, 15360 tbn, 60 tbc (default)
Metadata:
handler_name : VideoHandler
encoder : Lavc58.54.100 libx264
Side data:
cpb: bitrate max/min/avg: 0/0/0 buffer size: 0 vbv_delay: -1
Stream #0:1(und): Audio: ac3 (ac-3 / 0x332D6361), 44100 Hz, stereo, fltp, delay 256, 256 kb/s (default)
Metadata:
handler_name : SoundHandler
encoder : Lavc58.54.100 ac3
*** 2 dup!
*** 1 dup!
Last message repeated 7 times
*** 1 dup!
Last message repeated 5 times
*** 3 dup!
*** 65 dup!
*** 1 dup!
Last message repeated 1 times
*** 64 dup!
*** 1 dup!
*** 2 dup!
*** 119 dup!
av_interleaved_write_frame(): No space left on device
No more output streams to write to, finishing.
Error writing trailer of C:/Users/Jonathan/Videos/MC100P3/proxies/bd9f2973015c06cebd092b094a841f0c.pending.mp4: No space left on device
video:7839718kB audio:244030kB subtitle:0kB other streams:0kB global headers:0kB muxing overhead: unknown
Input file #0 (J:/Users/Little J/Downloads/807619085-102168255-be12b05e-e0a6-4e4d-974d-c1450d31a5a5.mp4):
Input stream #0:0 (video): 468269 packets read (5369313781 bytes); 468253 frames decoded;
Input stream #0:1 (audio): 336305 packets read (157693466 bytes); 336305 frames decoded (344376320 samples);
Total: 804574 packets (5527007247 bytes) demuxed
Output file #0 (C:/Users/Jonathan/Videos/MC100P3/proxies/bd9f2973015c06cebd092b094a841f0c.pending.mp4):
Output stream #0:0 (video): 468523 frames encoded; 468505 packets muxed (8027870931 bytes);
Output stream #0:1 (audio): 224203 frames encoded (344375808 samples); 224203 packets muxed (249887208 bytes);
Total: 692708 packets (8277758139 bytes) muxed
[AVIOContext @ 0000020d3d9f6e40] Statistics: 32 seeks, 31624 writeouts
[libx264 @ 0000020d3d9fb7c0] frame I:468523 Avg QP:29.71 size: 17135
[libx264 @ 0000020d3d9fb7c0] mb I I16…4: 32.0% 50.2% 17.8%
[libx264 @ 0000020d3d9fb7c0] 8x8 transform intra:50.2%
[libx264 @ 0000020d3d9fb7c0] coded y,uvDC,uvAC intra: 50.5% 35.6% 14.5%
[libx264 @ 0000020d3d9fb7c0] i16 v,h,dc,p: 34% 40% 18% 7%
[libx264 @ 0000020d3d9fb7c0] i8 v,h,dc,ddl,ddr,vr,hd,vl,hu: 15% 28% 22% 6% 5% 5% 7% 4% 8%
[libx264 @ 0000020d3d9fb7c0] i4 v,h,dc,ddl,ddr,vr,hd,vl,hu: 22% 31% 16% 5% 5% 5% 7% 4% 6%
[libx264 @ 0000020d3d9fb7c0] i8c dc,h,v,p: 62% 24% 11% 3%
[libx264 @ 0000020d3d9fb7c0] kb/s:8224.89
[AVIOContext @ 0000020d3d9fc040] Statistics: 5565620568 bytes read, 2 seeks
Conversion failed!
Failed with exit code 1

You are out of disk space. You should turn off Settings > Proxy > Storage > Use Project Folder and/or change the location for proxies with Settings > Proxy > Storage > Set…

Oh I didn’t realize that it was loading to my SSD, Thanks