Proxy generation is not working

proxy failed log

ffmpeg version n4.2.4-7-gc9f3835b2b Copyright (c) 2000-2020 the FFmpeg developers
built with gcc 10.3.0 (Rev5, Built by MSYS2 project)
configuration: --prefix=/d/a/shotcut/shotcut/build/Shotcut --disable-static --disable-doc --enable-gpl --enable-version3 --enable-shared --enable-runtime-cpudetect --enable-libtheora --enable-libvorbis --enable-libmp3lame --enable-libx264 --enable-libx265 --enable-libvpx --enable-libopus --enable-libmfx --enable-libdav1d --enable-libaom --disable-decoder=libaom_av1 --enable-libwebp --enable-libzimg --enable-libvmaf
libavutil 56. 31.100 / 56. 31.100
libavcodec 58. 54.100 / 58. 54.100
libavformat 58. 29.100 / 58. 29.100
libavdevice 58. 8.100 / 58. 8.100
libavfilter 7. 57.100 / 7. 57.100
libswscale 5. 5.100 / 5. 5.100
libswresample 3. 5.100 / 3. 5.100
libpostproc 55. 5.100 / 55. 5.100
[h264 @ 000001d4a7115200] Reinit context to 3840x2160, pix_fmt: yuv420p
Input #0, mov,mp4,m4a,3gp,3g2,mj2, from ‘C:/Users/arpit/OneDrive/Desktop/Folders/You tube/shayad new best/20211004_170644.mp4’:
Metadata:
major_brand : mp42
minor_version : 0
compatible_brands: isommp42
creation_time : 2021-10-04T11:38:50.000000Z
com.android.version: 11
com.android.capture.fps: 30.000000
Duration: 00:02:03.98, start: 0.000000, bitrate: 59472 kb/s
Stream #0:0(eng): Video: h264 (High), 1 reference frame (avc1 / 0x31637661), yuv420p(tv, bt709, left), 3840x2160, 59215 kb/s, SAR 1:1 DAR 16:9, 28.43 fps, 30 tbr, 90k tbn, 180k tbc (default)
Metadata:
rotate : 180
creation_time : 2021-10-04T11:38:50.000000Z
handler_name : VideoHandle
Side data:
displaymatrix: rotation of -180.00 degrees
Stream #0:1(eng): Audio: aac (LC) (mp4a / 0x6134706D), 48000 Hz, stereo, fltp, 256 kb/s (default)
Metadata:
creation_time : 2021-10-04T11:38:50.000000Z
handler_name : SoundHandle
Stream mapping:
Stream #0:0#0:0 (h264 (native) → hevc (hevc_nvenc))
Stream #0:1#0:1 (aac (native) → ac3 (native))
Press [q] to stop, [?] for help
[graph_1_in_0_1 @ 000001d4a79719c0] tb:1/48000 samplefmt:fltp samplerate:48000 chlayout:0x3
[h264 @ 000001d4a5ada240] Reinit context to 3840x2160, pix_fmt: yuv420p
[Parsed_scale_1 @ 000001d4a716f340] w:-2 h:360 flags:‘bicubic’ interl:0
[graph 0 input from stream 0:0 @ 000001d4a71c4ac0] w:3840 h:2160 pixfmt:yuv420p tb:1/90000 fr:30/1 sar:1/1 sws_param:flags=2
[Parsed_scale_1 @ 000001d4a716f340] w:3840 h:2160 fmt:yuv420p sar:1/1 → w:640 h:360 fmt:yuv420p sar:1/1 flags:0x4
[hevc_nvenc @ 000001d4a791e100] Cannot load nvcuda.dll
[hevc_nvenc @ 000001d4a791e100] Nvenc unloaded
Error initializing output stream 0:0 – Error while opening encoder for output stream #0:0 - maybe incorrect parameters such as bit_rate, rate, width or height
[AVIOContext @ 000001d4a7109440] Statistics: 0 seeks, 0 writeouts
[AVIOContext @ 000001d4a710c040] Statistics: 794381 bytes read, 4 seeks
Conversion failed!
Failed with exit code 1

Have you selected “Use Hardware Encoder” in your proxy settings? If so, turn it off.

1 Like

Thank you so much!!! it worked, at last, thank you again